HD Alex And Me | Más detalles | Alexander Skarsgård
[Login] or [Signup]
Login
Username:
Password:
[Signup]
[Recover Account]


Poll


You must be logged in to view polls



Torrent Details For "Siyasat S1 S2 Ep.1-42 EPIC Channel WebRip~VKS3385~HDDMR "

Siyasat S1 S2 Ep.1-42 EPIC Channel WebRip~VKS3385~HDDMR

Download this torrent | Magnet Download
Health:
Seeds: 0
Leechers: 12
Completed:
Last Checked: 05-10-2017 15:19:56
External Torrent
Update Stats
Download Magnet


Poster


iMDB
Title: Siyasaat
Year: 2014
Runtime: 45 minutes
Language: Hindi
Country: India
All Genres: History
Plot Outline: Siyaasat is a drama about the Mughal political battle for Akbars' throne entwined with the Salim- Mehrunissa love story, a couple who fought against all odds to become a formidable alliance...

Plot:

Siyaasat is a drama about the Mughal political battle for Akbars' throne entwined with the Salim- Mehrunissa love story, a couple who fought against all odds to become a formidable alliance which altered the course of Mughal politics and charted their path into Indian history.


Cast:
Mokshad Dodwani as Prince Daniyal
Deepika Amin as Ruqaiya Sultan Begum
Karanvir Sharma as Salim
Uday Tikekar as Akbar


Watch-Free-HD     Download

Details
Name:Siyasat S1 S2 Ep.1-42 EPIC Channel WebRip~VKS3385~HDDMR
Description:








From the courts of Mughal empire, here comes a story of deceit, love, conspiracy and politics. Siyaasat tells the story of Mughal emperor Salim and his twelfth wife Mehrunissa and the power politics in the emperor’s court to dethrone emperor Salim. This T.V series dwells into the relationship between Mehrunissa and Salim. It tells a story that will change the course  of Mughal empire forever.




Complete name               :Siyasat S1_S2 Ep.1-42 EPIC Channel WebRip~VKS3385~HDDMR
Format                      : MPEG-4
Format profile              : Base Media
Codec ID                    : isom (isom/iso2/avc1/mp41)
File size                   : Variable
Duration                    : Variable
Overall bit rate            : 2 254 kb/s
Writing application         : Lavf55.49.100

Video
ID                          : 1
Format                      : AVC
Format/Info                 : Advanced Video Codec
Format profile              : [email protected]
Format settings, CABAC      : Yes
Format settings, RefFrames  : 5 frames
Codec ID                    : avc1
Codec ID/Info               : Advanced Video Coding
Duration                    : Variable
Bit rate                    : 2 101 kb/s
Width                       : 1 280 pixels
Height                      : 720 pixels
Display aspect ratio        : 16:9
Frame rate mode             : Constant
Frame rate                  : 25.000 FPS
Color space                 : YUV
Chroma subsampling          : 4:2:0
Bit depth                   : 8 bits
Scan type                   : Progressive
Bits/(Pixel*Frame)          : 0.091
Stream size                 : 673 MiB (93%)
Writing library             : x264 core 148 r11 a01e339
Color range                 : Limited
Color primaries             : BT.709
Transfer characteristics    : BT.709
Matrix coefficients         : BT.709

Audio
ID                          : 2
Format                      : AAC
Format/Info                 : Advanced Audio Codec
Format profile              : LC
Codec ID                    : 40
Duration                    : Variable
Channel(s)                  : 2 channels
Channel positions           : Front: L R
Sampling rate               : 48.0 kHz
Frame rate                  : 46.875 FPS (1024 SPF)
Compression mode            : Lossy
Stream size                 : 47.1 MiB (7%)
Default                     : Yes
Alternate group             : 1


















Category:TV > WEB-HD
Lang:Hindi
Total Size:29.76 GB
Info Hash:8620073df56df9946da88fa5bda110ba9b6e8d2b
Added By:VKS3385
Date Added:02-09-2017 16:44:22
Views:351
Hits:116

Download Torrent

Ratings:Not Yet Rated (Log in to rate it)


Tracker:
udp://tracker.opentrackr.org:1337/announce


File List: 


Comments

<< Previous      Next >>
1 - 2

[Report] Posted: 03-09-2017 at 03:38:32
sonam21



Uploaded: 0.00 B
Downloaded: 0.00 B
Ratio: ---

Thank you  ... appreciate your hard work ....... thank you once again ...

please upload more shows of epic channel

[Report] Posted: 15-09-2017 at 05:27:12
sonam21



Uploaded: 0.00 B
Downloaded: 0.00 B
Ratio: ---

please seed

1 - 2
<< Previous      Next >>


Powered by 10 Hamsters v2-svn -|- Page Generated In 0.599414 secs.
-|- RSS FEED
Theme By: Nikkbu